Skip to main content

ted quinn Live at Pappy And Harriet's Pioneertown Palace on 2006-09-09

Audio Preview

etree
ted quinn Live at Pappy And Harriet's Pioneertown Palace on 2006-09-09




01. (crowd noise)
02.'Welcome to Pioneertown'
03. Apocalypse No (As A Matter Of Policy)
(quinn/mason)
04. Death Of Cool (quinn)
05. Boogie-Satva (quinn/mason)
06. That's Alright Mama (Arthur 'Big Boy' Crudup)
07. The Jean Genie (David Bowie)
08. (crowd noise)


Collection TedQuinn
Band/Artist ted quinn
Venue Pappy And Harriet's Pioneertown Palace
Location Pioneertown, CA

Source Sony MTL F-96 omni mic (Courtesy Bugs Salcido) on screw hook on ceiling FOB right side > Sony TCD-D100 > DAT @48KHz
Lineage Master DAT > Sony PCM-M1 > Sony RMR-D100 > S/Pdif Coax > Focusrite Saffire > Logic > AIFF > Audacity 1.2.5 (tracking in 1/75 second intervals) > multiple AIFF's > xACT 1.58 > FLAC (level 6)
Taped by TAS aka morst
Transferred by TAS aka morst

Notes

Ted Quinn I Rock n Roll Band:
September 9, 2006
Pappy and Harriet's Pioneertown Palace - indoor stage
Pioneertown CA
2nd Annual Cracker-Camper Van Beethoven Family Reunion Campout
http://www.crackersoul.com/campout/

Source: Sony MTL F-96 omni mic (Courtesy Bugs Salcido) on screw hook on ceiling FOB right side > Sony TCD-D100 > DAT @48KHz

Transfer: Master DAT > Sony PCM-M1 > Sony RMR-D100 > S/Pdif Coax > Focusrite Saffire > Logic > AIFF > Audacity 1.2.5 (tracking in 1/75 second intervals) > multiple AIFF's > xACT 1.58 > FLAC (level 6)

Taper: TAS aka morst

Ted Quinn (little teddy quinn) : vocals, harmonica
(busted wrist prevents me from playing guitar right now!)
Tony Mason: guitar
Kevin Ritchie: guitar
Shawn Mafia (Shawn O'Connor): bass
Sam Willmore: drums (wham bam, thank you sam)
and
Tal Hurley, Sue Bradley: background vocals (apocalypse no)

shntool results:
length expanded size cdr WAVE problems filename
1:25.533 7544084 cxx -- ---xx tq2006-09-09t01.flac
1:27.267 7696964 cxx -- ---xx tq2006-09-09t02.flac
3:44.960 19841516 cxx -- ---xx tq2006-09-09t03.flac
7:10.773 37994252 cxx -- ---xx tq2006-09-09t04.flac
8:51.960 46918916 cxx -- ---xx tq2006-09-09t05.flac
8:40.547 45912260 cxx -- ---xx tq2006-09-09t06.flac
7:31.960 39862916 cxx -- ---xx tq2006-09-09t07.flac
4:30.520 23859908 cxx -- ---xx tq2006-09-09t08.flac
43:23.520 229630816 B (totals for 8 files, 0.5797 overall compression ratio)

-=-=-=-=-=-=-=-=-=-=-=-=-=-=-=-=-=-=-=-=-=-=-=-=-=-=-=-=-=-=-=-=-=-=-
This recording brought to you by the Soundscape Preservation Society
Founded 1991
http://www.iamtypingwithonefinger.com/SPS.html
-=-=-=-=-=-=-=-=-=-=-=-=-=-=-=-=-=-=-=-=-=-=-=-=-=-=-=-=-=-=-=-=-=-=-

comment
Reviews

Reviewer: morst - favoritefavoritefavoritefavoritefavorite - October 11, 2006
Subject: Great set, I can hardly wait for next year!
Pitown was great. Pappy and Harriet's is a fun place to see music. The Cramper crampout was a blast, and the cool thing was that P&H didn't charge a cover to get into the main bar, so the indoor stage sets were free for anyone who wanted to show up. While Camper and Cracker and friends played on the "Western Stage," a great bunch of locals jammed on the indoor stage. I hope they book Teddy for next year's campout, he was one of the indoor highlights for me. Great set, Great music, and Bugs' little Sony mic worked just fine! Five stars!!!!! *****
SIMILAR ITEMS (based on metadata)
ted quinn
etree
eye 1,221
favorite 1
comment 0
Source: Sony MTL F-96 omni mic (Courtesy Bugs Salcido) on screw hook on ceiling FOB right side > Sony TCD-D100 > DAT @48KHz
ted quinn
etree
eye 286
favorite 1
comment 0
Source: DAUD
ted quinn
etree
eye 250
favorite 1
comment 1
favoritefavoritefavoritefavorite ( 1 reviews )
Source: Neumann KM140's > Beyer MV100 > Sony PCM-D50 > WAVs @48kHz/24bit + Yamaha SBD > Edirol R09 > WAVs @48kHz/24bit
Camper Van Beethoven
by Camper Van Beethoven
etree
eye 7,177
favorite 2
comment 1
favoritefavoritefavoritefavorite ( 1 reviews )
Source: Neumann KM140's ORTF shock-mounted on stand (~10') with DPA windscreens > Beyer MV100 > Sony PCM-M1 > DAT @48KHz
Rojer Arnold Band
by Rojer Arnold Band
etree
eye 11,943
favorite 1
comment 1
favoritefavoritefavoritefavorite ( 1 reviews )
Source: Sony MTL F-96 omni mic (Courtesy Bugs Salcido) on screw hook on ceiling FOB right side > Sony TCD-D100 > DAT @48KHz
Hackensaw Boys
by Hackensaw Boys
etree
eye 2,010
favorite 1
comment 1
favoritefavoritefavoritefavorite ( 1 reviews )
Source: Neumann KM140's > Beyer MV100 > Sony PCM-M1 > DAT master
Cracker
etree
eye 3,687
favorite 1
comment 1
favoritefavoritefavoritefavoritefavorite ( 1 reviews )
Source: Neumann KM140's > Beyer MV100 > Sony PCM-M1 > DAT master @48KHz
Dark Meat
etree
eye 3,194
favorite 1
comment 1
favoritefavoritefavoritefavoritefavorite ( 1 reviews )
Source: Soundcraft 400B mixing console > Edirol R09 > .WAV
Camper Van Beethoven
by Camper Van Beethoven
etree
eye 2,153
favorite 1
comment 0
Source: Neumann KM140's > Beyer MV100 > Sony PCM-M1 > DAT master (ORTF with windscreens, shock mounted on 7’ stand FOB, DFC)
Cracker
etree
eye 2,489
favorite 1
comment 0
Source: Soundcraft 400b mixing console "Studio Out" > Edirol R09 > .WAV file